[openvideo-it] interllacciamento?

Stefano Slaviero stefanoslaviero@gmail.com
Ven 29 Ott 2010 21:39:01 CEST


Ciao Raffaella!

Ho provato a fare il rendering secondo le tue indicazioni, ma quando provo
ad unire i due file la shell mi da questo messaggio:

stefano@stefano-desktop:~$  ffmpeg -i raftingottobre.wav -i
raftingottobre.m2v -target pal-dvd -r raftingottobre.mpg
FFmpeg version SVN-r0.5.1-4:0.5.1-1ubuntu1, Copyright (c) 2000-2009 Fabrice
Bellard, et al.
  configuration: --extra-version=4:0.5.1-1ubuntu1 --prefix=/usr
--enable-avfilter --enable-avfilter-lavf --enable-vdpau --enable-bzlib
--enable-libgsm --enable-libschroedinger --enable-libspeex
--enable-libtheora --enable-libvorbis --enable-pthreads --enable-zlib
--disable-stripping --disable-vhook --enable-runtime-cpudetect --enable-gpl
--enable-postproc --enable-swscale --enable-x11grab --enable-libdc1394
--enable-shared --disable-static
  libavutil     49.15. 0 / 49.15. 0
  libavcodec    52.20. 1 / 52.20. 1
  libavformat   52.31. 0 / 52.31. 0
  libavdevice   52. 1. 0 / 52. 1. 0
  libavfilter    0. 4. 0 /  0. 4. 0
  libswscale     0. 7. 1 /  0. 7. 1
  libpostproc   51. 2. 0 / 51. 2. 0
  built on Mar  4 2010 12:35:30, gcc: 4.4.3
Input #0, wav, from 'raftingottobre.wav':
  Duration: 00:20:55.84, bitrate: 1536 kb/s
    Stream #0.0: Audio: pcm_s16le, 48000 Hz, stereo, s16, 1536 kb/s

Seems stream 0 codec frame rate differs from container frame rate: 50.00
(50/1) -> 25.00 (25/1)
Input #1, mpegvideo, from 'raftingottobre.m2v':
  Duration: 00:12:57.69, bitrate: 8999 kb/s
    Stream #1.0: Video: mpeg2video, yuv420p, 720x576 [PAR 16:15 DAR 4:3],
9000 kb/s, 25 tbr, 1200k tbn, 50 tbc
Incorrect value for r: raftingottobre.mpg

Le impostazioni di Cinelerra sono quelle da principiante, ricavate dalla tua
guida: http://g-raffa.eu/Cinelerra/HOWTO/settings.html

Ho sbagliato qualcosa?

Grazie!

Stefano
-------------- parte successiva --------------
Un allegato HTML  stato rimosso...
URL: <http://lists.linux.it/pipermail/openvideo/attachments/20101029/5dbd64ed/attachment.htm>


Maggiori informazioni sulla lista Openvideo